#TITLE:Shining Collection(Gravitation OST);
#SUBTITLE:SDO China lv24 - [N]hok[Q] Simfile;
#ARTIST:Iceman;
#TITLETRANSLIT:;
#SUBTITLETRANSLIT:;
#ARTISTTRANSLIT:;
#CREDIT:[N]hok[Q];
#BANNER:bn-shiningcollection.png;
#BACKGROUND:bg-shiningcollection.png;
#LYRICSPATH:;
#CDTITLE:cd-shiningcollection.png;
#MUSIC:Shining Collection.mp3;
#OFFSET:-0.051;
#SAMPLESTART:47.696;
#SAMPLELENGTH:22.941;
#SELECTABLE:YES;
#DISPLAYBPM:170.000;
#BPMS:0.000=170.042,1.000=170.032,2.000=170.022,3.000=170.012,4.000=170.002,6.000=170.042,7.000=170.032,8.000=170.022,9.000=170.012,10.000=170.002,12.000=170.042,13.000=170.032,14.000=170.022,15.000=170.012,16.000=170.002,17.000=170.022,18.000=170.032,19.000=170.022,20.000=170.012,21.000=170.002,23.000=170.022,24.000=170.032,25.000=170.022,26.000=170.012,27.000=170.002,28.000=170.022,29.000=170.032,30.000=170.002,31.000=170.012,32.000=169.992,33.000=170.002,34.000=170.012,35.000=170.002,36.000=170.012,37.000=170.002,38.000=169.992,39.000=170.002,40.000=170.012,41.000=170.002,42.000=170.012,43.000=169.992,44.000=170.002,45.000=170.012,46.000=170.002,47.000=170.012,48.000=169.992,49.000=170.002,50.000=170.012,51.000=170.002,52.000=170.012,53.000=170.002,54.000=169.992,55.000=170.002,56.000=170.012,57.000=170.002,58.000=170.012,59.000=169.992,60.000=170.002,62.000=170.012,63.000=170.002,65.000=170.012,66.000=169.992,67.000=170.002,69.000=170.012,70.000=170.002,72.000=170.012,73.000=170.002,74.000=169.992,75.000=170.002,77.000=170.012,78.000=170.002,80.000=170.012,81.000=170.002,82.000=169.992,83.000=170.002,85.000=170.012,86.000=170.002,88.000=170.012,89.000=170.002,90.000=169.992,91.000=170.002,93.000=170.012,94.000=170.002,96.000=170.012,97.000=170.002,98.000=169.992,99.000=170.002,101.000=170.012,102.000=170.002,104.000=170.012,105.000=170.002,106.000=169.992,107.000=170.002,109.000=170.012,110.000=170.002,112.000=170.012,113.000=170.002,114.000=169.992,115.000=170.002,117.000=170.012,118.000=170.002,120.000=170.012,121.000=170.002,122.000=169.992,123.000=170.002,126.000=169.992,127.000=170.002,130.000=169.992,131.000=170.002,134.000=169.992,135.000=170.002,138.000=169.992,139.000=170.002,142.000=169.992,143.000=170.002,146.000=169.992,147.000=170.002,150.000=169.992,151.000=170.002,154.000=169.992,155.000=170.002,158.000=169.992,159.000=170.002,162.000=169.992,163.000=170.002,166.000=169.992,167.000=170.002,170.000=169.992,171.000=170.002,174.000=169.992,175.000=170.002,178.000=169.992,179.000=170.002,182.000=169.992,183.000=170.002,186.000=169.992,187.000=170.002,190.000=169.992,191.000=170.002,194.000=169.992,195.000=170.002,198.000=169.992,199.000=170.002,202.000=169.992,203.000=170.002,206.000=169.992,207.000=170.002,210.000=169.992,211.000=170.002,214.000=169.992,215.000=170.002,218.000=169.992,219.000=170.002,222.000=169.992,223.000=170.002,226.000=169.992,227.000=170.002,230.000=169.992,231.000=170.002,232.000=85.001,234.000=84.998,235.000=85.001,237.000=84.998,238.000=85.001,239.000=84.998,240.000=85.001,242.000=84.998,243.000=85.001,245.000=84.998,246.000=85.001,248.000=84.998,249.000=85.001,250.000=84.998,251.000=85.001,253.000=84.998,254.000=85.001,256.000=84.998,257.000=85.001,259.000=84.998,260.000=85.001,262.000=84.998,263.000=85.001,264.000=84.998,265.000=85.001,267.000=84.998,268.000=85.001,270.000=84.998,271.000=85.001,272.000=170.002,276.000=169.992,277.000=170.002,281.000=169.992,282.000=170.002,287.000=169.992,288.000=170.002,293.000=169.992,294.000=170.002,298.000=169.992,299.000=170.002,304.000=169.992,305.000=170.002,309.000=169.992,310.000=170.002,315.000=169.992,316.000=170.002,321.000=339.983,323.000=85.001,324.000=170.002,326.000=169.992,327.000=170.002,332.000=169.992,333.000=170.002,337.000=169.992,338.000=170.002,343.000=169.992,344.000=170.002,349.000=169.992,350.000=170.002,354.000=169.992,355.000=170.002,360.000=169.992,361.000=170.002,366.000=169.992,367.000=170.002,371.000=169.992,372.000=170.002,377.000=169.992,378.000=170.002,383.000=169.992,384.000=170.002,389.000=169.992,390.000=170.002,394.000=169.992,395.000=170.002,400.000=169.992,401.000=170.002,406.000=169.992,407.000=170.002,411.000=169.992,412.000=170.002,417.000=169.992,418.000=170.002,422.000=169.992,423.000=170.002,428.000=169.992,429.000=170.002,440.000=170.012,441.000=170.002,452.000=170.012,453.000=170.002,455.000=169.992,456.000=170.002,461.000=170.012,462.000=169.992,463.000=170.012,464.000=170.002,485.000=170.012,486.000=170.002,490.000=170.012,491.000=169.992,492.000=170.012,493.000=169.992,494.000=170.012,495.000=170.002,515.000=170.012,516.000=169.992,517.000=170.012,518.000=170.002,533.000=170.012,534.000=169.992,535.000=170.012,536.000=169.992,537.000=170.012,538.000=170.002,559.000=170.012,560.000=170.002,574.000=170.012,575.000=169.992,576.000=170.012,577.000=169.992,578.000=170.012,579.000=169.992,580.000=170.012,581.000=169.992,582.000=170.012,583.000=169.992,584.000=170.012,585.000=170.002;
#STOPS:;
#BGCHANGES:;
// cache tags:
#FIRSTBEAT:20.000;
#LASTBEAT:582.000;
#SONGFILENAME:Songs/SDO pack 5/Shining Collection(Gravitation OST)/Shining Collection(Gravitation OST).sm;
#HASMUSIC:1;
#HASBANNER:1;
#MUSICLENGTH:222.624;
// end cache tags

//---------------dance-single - ----------------
#NOTES:
     dance-single:
     :
     Hard:
     24:
     1.000,1.000,1.000,0.144,1.000,1711.000,283.000,32.000,0.000,20.000:
0000
0000
0000
0000
,
0000
0000
0000
0000
,
0000
0000
0000
0000
,
0000
0000
0000
0000
,
0000
0000
0000
0000
,
1000
0100
1000
0010
1000
0100
1000
0010
,
0001
0010
0001
1000
0001
0100
0001
1000
,
0100
0000
0010
0000
0100
0000
0001
0010
0100
0000
0010
0000
0100
0000
0001
0000
,
0010
0001
0100
0010
1000
0100
0001
0100
0010
1000
0100
0001
0010
0100
0010
0000
,
1100
0011
0110
1100
0110
0011
0110
1100
,
0011
0110
1100
0110
0002
0000
0000
0000
,
1103
0011
0110
0011
1100
0011
0110
1100
,
0011
0110
0011
0110
2000
0000
0000
0000
,
3011
0110
0110
1100
0110
0011
0110
1100
,
0011
0110
1100
0110
0002
0000
0000
0000
,
1103
0011
0110
0011
1100
0011
0110
1100
,
0011
0000
0110
0000
0011
0000
0110
0000
2100
0010
0001
0010
0100
0010
0001
0010
,
3100
0010
0001
0010
0100
0010
0001
0010
0100
0010
1000
0100
0010
0001
0010
0100
,
0010
0100
0010
0001
0010
0100
0010
0100
1000
0100
0010
0100
0001
0010
0001
0010
,
0100
0010
0100
1000
0010
0100
0010
0001
0010
0100
0010
1000
0010
0100
0010
0001
,
0010
0100
0010
0001
0010
0100
0010
1000
0100
0010
0001
0010
0100
0010
0100
0010
,
0001
0010
0100
0010
0100
1000
0100
0010
0100
0001
0010
0001
0010
0100
0010
0100
,
1000
0010
0100
0010
0001
0010
0100
0010
1000
0010
0100
0001
0010
0100
0010
0001
,
0010
0100
0010
0100
1000
0010
0100
0001
0010
0001
0010
0100
0010
0100
0010
1000
,
0100
0000
0010
0000
0001
0000
0010
0000
0100
0000
0010
0000
0001
0000
0010
0000
0100
0000
0010
0000
0100
0000
1000
0000
0100
0000
0010
0000
0100
0010
0001
0000
,
1010
0101
1010
0101
,
0101
0000
0011
0000
1010
0000
0110
0000
0011
1000
0100
0001
0010
0000
0100
0000
,
0011
0110
0110
0011
,
0101
0000
0010
0000
1010
0000
0100
0000
0011
0100
0010
0100
1000
0100
0010
0001
,
0101
0011
1100
0011
,
0101
0000
0011
0000
1010
0000
0110
0000
0101
1000
0010
0001
1000
0000
0100
0000
,
0101
0101
1100
0101
,
0101
0000
0000
0011
0000
0000
1100
0000
0022
0000
0000
0000
0100
0000
0000
0000
,
0133
1000
0010
0100
0010
0001
0010
0100
0011
0000
0000
0000
0000
0000
0000
0000
,
0010
0100
0010
0001
0010
0100
0010
0001
0010
0100
0010
1000
0100
0010
0001
0010
,
0100
0010
0100
0010
0001
0010
0100
0010
0100
1000
0100
0010
0100
0001
0010
0001
,
0010
0100
0010
0100
1000
0010
0100
0010
0001
0010
0100
0010
1000
0010
0100
0010
,
0001
0010
0100
0010
0001
0010
0100
0010
1000
0100
0010
0001
0010
0100
0010
0100
,
0010
0001
0010
0100
0010
0100
1000
0100
0010
0100
0001
0010
0001
0010
0100
0010
,
0100
1000
0010
0100
0010
0001
0010
0100
0010
1000
0010
0100
0001
0010
0100
0010
,
0001
0010
0100
0010
0100
1000
0010
0100
0001
0010
0001
0010
0100
0010
0100
0010
,
1000
0000
0100
0000
0010
0000
0001
0000
0010
0000
0100
0000
0010
0000
0001
0000
0010
0001
0100
1000
0010
0001
0100
0010
1000
0001
0100
0001
0010
1000
0100
0010
,
1001
0010
0100
0010
0001
0010
0100
0010
0001
0010
0100
0010
1000
0100
0010
0001
,
0010
0100
0010
0100
0010
0001
0010
0100
0010
0100
1000
0100
0010
0100
0001
0010
,
0001
0010
0100
0010
0100
1000
0010
0100
0010
0001
0010
0100
0010
1000
0010
0100
,
0010
0001
0010
0100
0010
0001
0010
0100
0010
1000
0100
0010
0001
0010
0100
0010
,
0100
0010
0001
0010
0100
0010
0100
1000
0100
0010
0100
0001
0010
0001
0010
0100
,
0010
0100
1000
0010
0100
0010
0001
0010
0100
0010
1000
0010
0100
0001
0010
0100
,
0010
0001
0010
0100
0010
0100
1000
0010
0100
0001
0010
0001
0010
0100
0010
0100
,
0011
0000
1000
0000
0100
0000
0010
0000
0101
0000
0010
0000
1100
0000
0010
0000
0001
1000
0010
0100
1000
0010
0001
0010
0100
0010
1000
0001
0100
1000
0010
0001
,
1100
0000
0000
0000
0101
0000
1000
0100
0011
0000
0000
0000
0000
0000
0110
0000
,
0000
0010
0001
0000
1000
1000
0101
0000
,
1010
0000
0000
0000
0001
0000
0001
0010
1100
0000
0000
0000
0000
0000
0110
0000
,
0001
0100
0001
0100
0001
0100
0001
0100
,
1001
0010
0001
0010
0101
0010
0100
1000
0101
0010
0001
0010
0100
0010
0110
1000
,
0100
0010
1100
0010
0101
0010
0100
0010
0001
0010
0101
1000
0101
0000
0000
0000
,
1001
0010
0001
0010
1100
0010
0100
0010
0101
1000
0100
0010
0001
0010
0100
0010
,
0101
0000
0010
0000
0101
0000
0010
0000
1000
0100
0010
0001
0010
0100
1000
0100
,
0011
0000
0000
1000
0110
0000
0000
0001
0110
0000
1100
0000
0011
0000
0000
0000
,
0101
0000
0000
1000
0101
0000
0010
0000
0100
0000
0000
1000
0101
0000
0001
0000
,
0010
0000
0000
0000
0000
0000
1000
0000
0101
0000
0000
0000
0000
0000
0001
0000
0010
0000
0000
0000
0100
0000
0000
0000
0101
0000
0000
0000
0000
0000
1000
0100
,
0011
0000
0000
0100
1010
0000
0000
0000
0011
0000
0000
0100
1001
0000
0010
0000
,
0011
0000
0000
1000
0101
0000
0000
0100
0011
0000
0011
0000
1010
0000
0100
0000
,
0011
0000
0000
1000
0101
0000
0010
0000
0100
0000
0000
1000
0110
0000
0010
0010
,
0101
0000
0000
0000
0000
0000
1000
0000
0110
0000
0000
0000
0010
0000
0000
0000
0001
0000
0000
0000
0000
0000
1000
0000
0101
0000
0000
0000
0000
0000
1000
0100
,
0011
0000
0000
0100
0011
0000
0010
0000
1000
0000
0000
0100
0011
0000
0100
0100
,
1001
0000
0010
0100
2010
0001
0010
0100
0010
0001
0010
0100
0010
0001
0010
0100
,
0010
0000
0001
0000
0010
0000
0100
0000
0010
0000
0001
0000
0010
0000
0100
0000
0010
0001
0010
0100
0010
0001
0010
0100
0010
0001
0010
0100
0010
0001
0010
0100
,
3010
0010
0010
0010
,
0100
0000
0100
0000
0100
0000
0100
0100
,
0010
0010
0010
0010
,
0001
0010
0100
0010
0100
0010
0100
1000
0100
0010
0001
0010
0100
0010
0100
1000
,
1100
0011
0110
1100
0110
0011
0110
1100
,
0011
0110
1100
0110
0002
0000
0000
0000
,
1103
0011
0110
0011
1100
0011
0110
1100
,
0011
0110
0011
0110
2000
0000
0000
0000
,
3011
0110
0110
1100
0110
0011
0110
1100
,
0011
0110
1100
0110
0002
0000
0000
0000
,
1103
0011
0110
0011
1100
0011
0110
1100
,
0011
0000
0110
0000
0011
0000
0110
0000
2100
0010
0001
0010
0100
0010
0001
0010
,
3100
0000
0000
0000
,
0010
0100
0010
0001
0010
0100
0010
0001
0010
0100
0010
1000
0100
0010
0001
0010
,
0100
0010
0100
0010
0001
0010
0100
0010
0100
1000
0100
0010
0100
0001
0010
0001
,
0010
0100
0010
0100
1000
0010
0100
0010
0001
0010
0100
0010
1000
0010
0100
0010
,
0001
0010
0100
0010
0001
0010
0100
0010
1000
0100
0010
0001
0010
0100
0010
0100
,
0010
0001
0010
0100
0010
0100
1000
0100
0010
0100
0001
0010
0001
0010
0100
0010
,
0100
1000
0010
0100
0010
0001
0010
0100
0010
1000
0010
0100
0001
0010
0100
0010
,
0001
0010
0100
0010
0100
1000
0010
0100
0001
0010
0001
0010
0100
0010
0100
0010
,
1000
0000
0100
0000
0010
0000
0001
0000
0010
0000
0100
0000
0010
0000
0001
0000
0010
0001
0100
1000
0010
0001
0100
0010
1000
0001
0100
0001
0010
1000
0100
0010
,
1001
0010
0100
0010
0001
0010
0100
0010
0001
0010
0100
0010
1000
0100
0010
0001
,
0010
0100
0010
0100
0010
0001
0010
0100
0010
0100
1000
0100
0010
0100
0001
0010
,
0001
0010
0100
0010
0100
1000
0010
0100
0010
0001
0010
0100
0010
1000
0010
0100
,
0010
0001
0010
0100
0010
0001
0010
0100
0010
1000
0100
0010
0001
0010
0100
0010
,
0100
0010
0001
0010
0100
0010
0100
1000
0100
0010
0100
0001
0010
0001
0010
0100
,
0010
0100
1000
0010
0100
0010
0001
0010
0100
0010
1000
0010
0100
0001
0010
0100
,
0010
0001
0010
0100
0010
0100
1000
0010
0100
0001
0010
0001
0010
0100
0010
0100
,
0011
0000
1000
0000
0100
0000
0010
0000
0101
0000
0010
0000
1100
0000
0010
0000
0001
1000
0010
0100
1000
0100
0001
0010
0100
0010
1000
0001
0010
1000
0100
0001
,
0010
0100
0010
0001
0010
0100
0010
0001
0010
0100
0010
1000
0100
0010
0001
0010
,
0100
0010
0100
0010
0001
0010
0100
0010
0100
1000
0100
0010
0100
0001
0010
0001
,
0010
0100
0010
0100
1000
0010
0100
0010
0001
0010
0100
0010
1000
0010
0100
0010
,
0001
0010
0100
0010
0001
0010
0100
0010
1000
0100
0010
0001
0010
0100
0010
0100
,
0010
0001
0010
0100
0010
0100
1000
0100
0010
0100
0001
0010
0001
0010
0100
0010
,
0100
1000
0010
0100
0010
0001
0010
0100
0010
1000
0010
0100
0001
0010
0100
0010
,
0001
0010
0100
0010
0100
1000
0010
0100
0001
0010
0001
0010
0100
0010
0100
0010
,
1000
0000
0100
0000
0010
0000
0001
0000
0010
0000
0100
0000
0010
0000
0001
0000
0010
0001
0100
1000
0010
0001
0100
0010
1000
0001
0100
0001
0010
1000
0100
0010
,
1001
0010
0100
0010
0001
0010
0100
0010
0001
0010
0100
0010
1000
0100
0010
0001
,
0010
0100
0010
0100
0010
0001
0010
0100
0010
0100
1000
0100
0010
0100
0001
0010
,
0001
0010
0100
0010
0100
1000
0010
0100
0010
0001
0010
0100
0010
1000
0010
0100
,
0010
0001
0010
0100
0010
0001
0010
0100
0010
1000
0100
0010
0001
0010
0100
0010
,
0100
0010
0001
0010
0100
0010
0100
1000
0100
0010
0100
0001
0010
0001
0010
0100
,
0010
0100
1000
0010
0100
0010
0001
0010
0100
0010
1000
0010
0100
0001
0010
0100
,
0010
0001
0010
0100
0010
0100
1000
0010
0100
0001
0010
0001
0010
0100
0010
0100
,
0011
0000
1000
0000
0100
0000
0010
0000
0101
0000
0010
0000
1000
0000
0001
0000
1100
0000
0010
0000
0001
0000
0010
0000
1100
0010
0001
0010
0100
0010
0001
0010
,
1200
0010
0001
0010
1000
0010
0001
0010
1320
0100
0001
0100
0001
0100
0001
0100
,
1030
0010
0001
0100
0011
1000
0100
0010
0101
0010
0100
1000
0110
0001
0010
0100
,
2010
0001
0100
0010
0001
0010
0100
0001
3110
0001
0010
0100
0011
1000
0100
0010
,
0201
0010
0001
0010
1000
0010
0001
0010
1301
0010
0001
0010
0100
1000
0100
0001
,
2010
0100
0010
0001
0010
0100
0010
0100
3012
0100
1000
0100
0010
0100
1000
0100
,
1013
0100
0010
0100
1001
0100
0010
0001
0110
1000
0100
0010
0101
0010
0100
1000
,
0011
0100
0010
0001
0110
0001
0010
0001
1100
0010
0100
1000
0011
0100
0010
0001
,
0210
0000
0001
0000
0010
0000
1000
0000
0010
0000
0001
0000
0010
0000
1000
0000
0310
0000
0001
0100
0010
0001
0100
1000
0010
1000
0001
0100
0010
0001
0100
0001
,
2010
0100
0010
0001
0010
0100
0010
0001
3120
0001
0100
1000
0100
0001
0100
1000
,
0131
0010
0001
0100
1010
0100
0010
0001
0110
1000
0100
0001
0110
1000
0001
0010
,
2001
0100
0010
0001
0010
0100
0010
0001
3100
0010
0001
0100
0010
0100
1000
0100
,
0012
0100
1000
0100
0010
0100
1000
0100
0013
0100
1000
0010
0101
0010
0001
0010
,
1200
0010
0001
0010
1000
0010
0001
1000
0321
0100
1000
0100
0001
0100
1000
0100
,
0031
0000
0100
0000
0010
0000
0001
0000
1100
0000
0010
0000
0001
0000
0100
0000
1000
0100
0010
0100
0001
0010
0100
0010
0001
0100
0010
0100
1000
0100
0010
0001
,
1100
0011
0110
1100
0110
0011
0110
1100
,
0011
0110
1100
0110
0012
0100
0010
0100
,
1103
0011
0110
0011
1100
0011
0110
1100
,
0011
0110
0011
0110
2100
0010
0100
0010
,
3011
0110
0110
1100
0110
0011
0110
1100
,
0011
0110
1100
0110
0012
0100
0010
0100
,
1103
0011
0110
0011
1100
0011
0110
1100
,
0011
0000
0110
0000
0011
0000
0110
0000
2100
0010
0001
0010
0100
0010
0001
0010
,
3100
0000
0010
0000
0001
0000
0010
0000
0100
0000
0010
0000
0001
0000
0010
0000
0100
0010
0001
0010
0100
0010
0001
0010
0100
0010
0001
0010
0100
0010
0001
0010
,
2200
0000
0022
0000
,
0000
0000
0000
0000
,
0000
0000
0000
0000
,
0000
0000
0000
0000
,
0000
0000
0000
0000
,
0000
0000
0000
0000
,
0000
0000
0000
0000
,
0000
0000
0000
0000
,
0000
0000
0000
0000
,
0000
0000
3333
0000
,
0000
0000
0000
0000
,
0000
0000
0000
0000
;

//---------------dance-solo - ----------------
#NOTES:
     dance-solo:
     :
     Hard:
     24:
     1.000,1.000,1.000,0.144,1.000,1709.000,283.000,32.000,0.000,20.000:
000000
000000
000000
000000
,
000000
000000
000000
000000
,
000000
000000
000000
000000
,
000000
000000
000000
000000
,
000000
000000
000000
000000
,
100000
010000
100000
001000
100000
010000
100000
001000
,
000001
000010
000001
001000
000001
000100
000001
001000
,
000100
000000
000010
000000
010000
000000
000100
001000
010000
000000
001000
000000
010000
000000
000100
000000
,
000010
000001
000100
000010
001000
000100
000001
000100
000010
001000
000100
000001
000010
000100
000010
000000
,
110000
001100
011000
110000
000110
000011
000110
001100
,
000011
000110
001100
000110
000200
000000
000000
000000
,
110300
001100
011000
001100
110000
001100
011000
001100
,
000011
000110
000011
000110
000002
000000
000000
000000
,
001103
011000
011000
110000
011000
000110
001100
011000
,
000011
000110
001100
000110
000200
000000
000000
000000
,
011300
000110
001100
000110
011000
000110
001100
110000
,
001100
000000
011000
000000
001100
000000
011000
000000
200100
000010
000001
000010
000100
000010
000001
000010
,
310000
001000
000100
001000
010000
001000
000100
001000
010000
001000
100000
010000
001000
000100
001000
010000
,
000010
000100
000010
000001
000010
000100
000010
000100
001000
000100
000010
000100
000001
000010
000001
000010
,
010000
001000
010000
100000
001000
010000
001000
000100
001000
010000
001000
100000
001000
010000
001000
000100
,
000010
000100
000010
000001
000010
000100
000010
001000
000100
000010
000001
000010
000100
000010
000100
000010
,
000100
001000
010000
001000
010000
100000
010000
001000
010000
000100
001000
000100
001000
010000
001000
010000
,
001000
000010
000100
000010
000001
000010
000100
000010
001000
000010
000100
000001
000010
000100
000010
000001
,
001000
010000
001000
010000
100000
001000
010000
000100
001000
000100
001000
010000
001000
010000
001000
100000
,
000100
000000
000010
000000
000001
000000
000010
000000
000100
000000
000010
000000
000001
000000
000010
000000
000100
000000
000010
000000
000100
000000
001000
000000
000100
000000
000010
000000
000100
000010
000001
000000
,
101000
010100
101000
010100
,
000101
000000
000011
000000
001010
000000
000110
000000
000011
001000
000100
000001
000010
000000
000100
000000
,
001100
011000
011000
001100
,
001010
000000
000100
000000
010100
000000
001000
000000
000110
001000
000100
001000
010000
001000
000100
000010
,
010100
001100
110000
001100
,
000101
000000
000011
000000
001010
000000
000110
000000
000101
001000
000010
000001
001000
000000
010000
000000
,
010100
010100
110000
010100
,
000101
000000
000000
000011
000000
000000
001100
000000
002200
000000
000000
000000
010000
000000
000000
000000
,
013300
001000
000010
000100
000010
000001
000010
000100
000011
000000
000000
000000
000000
000000
000000
000000
,
001000
010000
001000
000100
001000
010000
001000
000100
001000
010000
001000
100000
010000
001000
000001
000010
,
000100
000010
000100
000010
000001
000010
000100
000010
000100
001000
000100
000010
000100
010000
001000
000100
,
001000
010000
001000
010000
100000
001000
010000
001000
000100
001000
010000
000100
001000
000010
000100
000010
,
000001
000010
000100
000010
000001
000010
000100
000010
001000
010000
001000
000100
001000
010000
001000
010000
,
000010
000001
000010
000100
000010
000100
001000
000100
000010
000100
000001
000010
000001
000010
000100
000010
,
000100
001000
000010
000100
000010
000001
000010
000100
000010
001000
000010
000100
000001
000010
000100
000010
,
000001
000010
000100
000010
000100
001000
000010
000100
000001
000010
000001
000010
000100
000010
000100
000010
,
001000
000000
000100
000000
000010
000000
000001
000000
000010
000000
000100
000000
000010
000000
000001
000000
000010
000001
000100
001000
000010
000100
010000
001000
100000
000100
010000
000100
001000
100000
000100
000010
,
001001
000010
000100
000010
000001
000010
000100
000010
000001
000010
000100
000010
001000
000100
000010
000001
,
001000
010000
001000
010000
001000
000100
001000
010000
001000
010000
001000
000100
000010
000100
000001
000010
,
000001
000010
000100
000010
000100
001000
000010
000100
000010
000001
000010
000100
001000
100000
001000
010000
,
001000
000100
001000
010000
001000
000100
001000
010000
001000
100000
010000
000100
000010
000100
001000
000100
,
001000
000100
000010
000100
001000
000100
001000
010000
001000
000100
001000
000010
000100
000010
001000
010000
,
001000
010000
100000
001000
010000
001000
000100
001000
010000
001000
100000
000100
001000
000010
000100
001000
,
000100
000010
000100
001000
000100
001000
010000
000100
001000
000010
000100
000010
000100
001000
000100
010000
,
000011
000000
100000
000000
010000
000000
000010
000000
001001
000000
000010
000000
011000
000000
000010
000000
000001
010000
000010
001000
010000
000010
000001
000010
001000
000010
010000
000001
001000
010000
000010
000100
,
011000
000000
000000
000000
010100
000000
100000
010000
001100
000000
000000
000000
000000
000000
011000
000000
,
000000
001000
000001
000000
001000
001000
000101
000000
,
001010
000000
000000
000000
000001
000000
000001
000010
001100
000000
000000
000000
000000
000000
000110
000000
,
000001
010000
000100
010000
000100
010000
000100
010000
,
001001
000010
000001
000010
000101
000010
000100
001000
000101
000010
000001
000010
000100
000010
000110
001000
,
000100
000010
001100
000010
000101
001000
010000
001000
000100
001000
010100
100000
010100
000000
000000
000000
,
001001
000010
000001
000010
001100
000010
000100
000010
000101
001000
000100
000010
000001
000010
000100
000010
,
000101
000000
000010
000000
000101
000000
000010
000000
010000
001000
000100
000010
000100
001000
010000
001000
,
000110
000000
000000
010000
001100
000000
000000
000010
001100
000000
011000
000000
000110
000000
000000
000000
,
010100
000000
000000
100000
010100
000000
001000
000000
010000
000000
000000
100000
000101
000000
000001
000000
,
000010
000000
000000
000000
000000
000000
001000
000000
000101
000000
000000
000000
000000
000000
000001
000000
000010
000000
000000
000000
010000
000000
000000
000000
010100
000000
000000
000000
000000
000000
001000
000100
,
000011
000000
000000
000100
001010
000000
000000
000000
000011
000000
000000
000100
001001
000000
000010
000000
,
000011
000000
000000
100000
010100
000000
000000
010000
001100
000000
001100
000000
101000
000000
010000
000000
,
000011
000000
000000
001000
000101
000000
000010
000000
000100
000000
000000
001000
000110
000000
001000
001000
,
010100
000000
000000
000000
000000
000000
100000
000000
011000
000000
000000
000000
001000
000000
000000
000000
000001
000000
000000
000000
000000
000000
001000
000000
000101
000000
000000
000000
000000
000000
001000
000100
,
000011
000000
000000
000100
000011
000000
000010
000000
001000
000000
000000
000100
000011
000000
010000
001000
,
100010
000000
000100
001000
200100
000010
000100
001000
000100
000010
000100
001000
000100
000010
000100
001000
,
000100
000000
000010
000000
000100
000000
001000
000000
000100
000000
000010
000000
000100
000000
001000
000000
000100
000010
000100
001000
000100
000010
000100
001000
000100
000010
000100
001000
000100
000010
000100
001000
,
300100
001000
001000
001000
,
010000
000000
010000
000000
010000
000000
010000
010000
,
001000
001000
001000
001000
,
000001
000010
000100
000010
000100
000010
000100
001000
000100
000010
000001
000010
000100
000010
000100
001000
,
001100
000011
000110
001100
000110
000011
000110
001100
,
000011
011000
110000
011000
000200
000000
000000
000000
,
011300
000110
001100
000110
011000
000110
001100
011000
,
000110
001100
000110
001100
200000
000000
000000
000000
,
300011
000110
000110
001100
000110
000011
000110
001100
,
000011
000110
001100
011000
200000
000000
000000
000000
,
301100
000011
000110
000011
001100
000011
000110
001100
,
000011
000000
000110
000000
001100
000000
011000
000000
200100
000010
000001
000010
000100
000010
000001
000010
,
300100
000000
000000
000000
,
001000
010000
001000
000100
001000
010000
001000
000100
001000
010000
001000
100000
010000
001000
000100
001000
,
000100
000010
000100
000010
000001
000010
000100
000010
000100
001000
000100
000010
000100
000001
000010
000001
,
000010
000100
000010
000100
001000
000010
000100
000010
000001
000010
000100
000010
001000
000010
000100
000010
,
000001
000010
000100
000010
000001
000010
000100
000010
001000
000100
000010
000001
000010
000100
000010
000100
,
000010
000001
000010
000100
000010
000100
001000
010000
001000
000100
000010
000100
000001
000010
000001
000010
,
000100
000010
000100
001000
000010
000100
000010
000100
001000
010000
001000
100000
001000
010000
000100
001000
,
010000
001000
000100
001000
010000
001000
010000
100000
001000
010000
000100
001000
000100
001000
010000
001000
,
000100
000000
000010
000000
001000
000000
000100
000000
000010
000000
000001
000000
000010
000000
000100
000000
000010
000001
000100
001000
000010
000001
000100
000010
001000
000001
000100
000001
000010
001000
000100
000010
,
001001
000100
010000
001000
000100
001000
010000
001000
000100
001000
010000
001000
100000
010000
001000
000100
,
000010
000100
000010
000100
000010
000001
000010
000100
000010
000100
001000
000100
000010
000100
000001
000010
,
000100
001000
010000
001000
010000
100000
001000
010000
001000
000100
001000
010000
001000
100000
001000
000100
,
000010
000001
000010
000100
000010
000001
000010
000100
000010
001000
000100
000010
000001
000010
000100
000010
,
000100
000010
000100
001000
010000
001000
010000
100000
010000
001000
010000
000100
001000
000100
001000
010000
,
000010
000100
001000
000010
000100
000010
000001
000010
000100
000010
001000
000010
000100
000001
000010
000100
,
000010
000001
000010
000100
000010
000100
001000
000010
000100
000001
000010
000001
000010
000100
000010
000100
,
000011
000000
001000
000000
000100
000000
000010
000000
000101
000000
000010
000000
001100
000000
000010
000000
000001
001000
000010
000100
001000
000100
000001
000010
000100
000010
001000
000001
000010
001000
000100
000001
,
000010
000100
001000
000100
001000
010000
001000
000100
001000
010000
001000
100000
010000
001000
000100
001000
,
010000
001000
010000
001000
000100
001000
010000
001000
010000
100000
010000
001000
010000
000100
001000
000100
,
000010
000100
000010
000100
001000
000010
000100
000010
000001
000010
000100
000010
001000
000010
000100
000010
,
000001
000010
000100
000010
000001
000010
000100
000010
001000
000100
000010
000001
000010
000100
000010
000100
,
000010
000001
000010
000100
000010
000100
010000
001000
000100
001000
000010
000100
000010
000100
001000
000100
,
001000
010000
000100
001000
000100
000010
000100
001000
000100
100000
001000
010000
000100
001000
010000
001000
,
000100
001000
010000
001000
010000
100000
001000
010000
000100
001000
000100
001000
010000
001000
010000
000010
,
001000
000000
000100
000000
000010
000000
000001
000000
000010
000000
000100
000000
000010
000000
000001
000000
000010
000001
000100
001000
000010
000001
000100
000010
001000
000001
000100
000001
000010
001000
000100
000010
,
001001
000010
000100
000010
000001
000010
000100
000010
000001
000010
000100
000010
001000
000100
000010
000100
,
001000
010000
001000
010000
001000
000100
001000
010000
001000
010000
100000
010000
001000
010000
000100
001000
,
000001
000010
000100
000010
000100
001000
000010
000100
000010
000001
000010
000100
000010
001000
000010
000100
,
000010
000001
000010
000100
000010
000001
000010
000100
000010
001000
000100
000010
000001
000010
000100
001000
,
010000
001000
000100
001000
010000
001000
010000
100000
010000
001000
010000
000100
001000
000100
001000
010000
,
000010
000100
001000
000010
000100
000010
000001
000010
000100
000010
001000
000010
000100
000001
000010
000100
,
000010
000001
000010
000100
000010
010000
100000
001000
010000
000100
001000
000100
001000
010000
100000
010000
,
100000
000000
010000
000000
001000
000000
000100
000000
000011
000000
001000
000000
000100
000000
000010
000000
000101
000000
000010
000000
001100
000000
000010
000000
000001
000000
000010
000000
001100
000010
000001
000010
,
120000
000010
000001
000010
100000
000010
000001
000010
132000
010000
000100
010000
000100
010000
000100
010000
,
103000
000010
000001
000100
000011
100000
000100
000010
000101
000010
000100
100000
000110
000001
000010
000100
,
200010
000001
000100
000010
000001
000010
000100
000010
311000
000100
001000
010000
001100
100000
010000
001000
,
020001
000010
000001
000010
100000
000010
000001
000010
130001
000010
000001
000010
010000
100000
010000
000100
,
201000
010000
001000
000100
001000
010000
001000
010000
301200
010000
100000
010000
001000
010000
100000
010000
,
001310
000100
000010
000100
001001
000100
000010
000001
000110
001000
000100
000010
000101
000010
000100
001000
,
000011
010000
000100
000010
010100
000010
000100
000010
110000
000100
010000
100000
000110
010000
000100
000010
,
020100
000000
000010
000000
000100
000000
100000
000000
000100
000000
000010
000000
000100
000000
100000
000000
031000
000000
000010
010000
000100
000010
010000
100000
000100
100000
000010
010000
000100
000010
010000
000001
,
200010
010000
000010
000001
000010
010000
000010
000001
312000
000100
010000
100000
010000
000100
010000
100000
,
013001
000010
000001
010000
100010
010000
000010
000001
010010
100000
010000
000001
010010
100000
000001
000010
,
200001
001000
000010
000001
000010
001000
000010
000001
301000
000010
000001
010000
000010
010000
100000
010000
,
001200
010000
100000
010000
001000
010000
100000
010000
001300
010000
100000
001000
010100
000010
000001
000010
,
001200
000010
000001
000010
001000
000010
000001
001000
000321
000100
001000
000100
000001
000100
001000
000100
,
000031
000000
000100
000000
000010
000000
000001
000000
001100
000000
000010
000000
000001
000000
010000
000000
100000
010000
001000
010000
000100
001000
000100
000010
000001
000100
000010
000100
001000
000100
000010
000001
,
001100
000011
000110
001100
000110
000011
000110
001100
,
000011
000110
001100
000110
000210
010000
001000
010000
,
110300
001100
011000
001100
110000
000011
000110
001100
,
000011
000110
000011
000110
002100
000010
000100
000010
,
003011
000110
000110
001100
011000
001100
011000
110000
,
001100
011000
110000
011000
001200
010000
001000
010000
,
011300
000110
001100
000110
011000
000110
001100
011000
,
000110
000000
001100
000000
000011
000000
000110
000000
200100
000010
000001
000010
000100
000010
000001
000010
,
300100
000000
000010
000000
000001
000000
000010
000000
000100
000000
001000
000000
000100
000000
001000
000000
010000
001000
000100
001000
010000
001000
000100
001000
010000
001000
000100
001000
010000
001000
000100
001000
,
220000
000000
002200
000000
,
000000
000000
000000
000000
,
000000
000000
000000
000000
,
000000
000000
000000
000000
,
000000
000000
000000
000000
,
000000
000000
000000
000000
,
000000
000000
000000
000000
,
000000
000000
000000
000000
,
000000
000000
000000
000000
,
000000
000000
333300
000000
,
000000
000000
000000
000000
,
000000
000000
000000
000000
;
